<?xml version="1.0" standalone="no"?>
<!DOCTYPE svg PUBLIC "-//W3C//DTD SVG 1.1//EN" "http://www.w3.org/Graphics/SVG/1.1/DTD/svg11.dtd" >
<svg xmlns="http://www.w3.org/2000/svg">
<metadata>Generated by IcoMoon</metadata>
<defs>
<font id="qpoint" horiz-adv-x="1024">
<font-face units-per-em="1024" ascent="870.4" descent="-153.6" />
<missing-glyph horiz-adv-x="1024" />
<glyph unicode="&#x20;" d="" />
<glyph unicode="&#xe98a;" glyph-name="building-alt" d="M775.168 736c-11.264 61.44-14.336 64.512-77.824 64.512h-124.928c-51.2-1.024-59.392-8.192-65.536-63.488-105.472-25.6-136.192-60.416-138.24-167.936-2.048 0-3.072 1.024-4.096 1.024-34.816 0-69.632 0-104.448 0s-39.936-27.648-43.008-54.272c-75.776-24.576-99.328-56.32-99.328-137.216 0-138.24 0-275.456 0-412.672 0-49.152 12.288-61.44 60.416-62.464 72.704 0 145.408 0 222.208 0 0 1.024 0 2.048 0 3.072 7.168-2.048 16.384-2.048 26.624-3.072 147.456 0 294.912 0 442.368 0 11.264 0 21.504 1.024 35.84 2.048v652.288c0 112.64-27.648 150.528-130.048 178.176zM315.392 62.208c-46.080 0-60.416-11.264-62.464-53.248 0-10.24 0-21.504 0-33.792h-65.536c-1.024 4.096-3.072 8.192-3.072 13.312 0 135.168-1.024 270.336 0 405.504 0 35.84 14.336 50.176 50.176 50.176 43.008 0 87.040 0 133.12 0v-99.328c-23.552-3.072-27.648-22.528-26.624-43.008 0-24.576 2.048-44.032 26.624-47.104v-31.744c-22.528-3.072-28.672-20.48-26.624-44.032-1.024-24.576 3.072-41.984 26.624-45.056v-92.16c-7.168 15.36-22.528 20.48-52.224 20.48zM838.656-24.832h-116.736c0 23.552 1.024 46.080 0 68.608-1.024 41.984-13.312 55.296-52.224 55.296-23.552 0-47.104 1.024-70.656 0-32.768-1.024-46.080-14.336-48.128-49.152 0-24.576 0-49.152 0-74.752h-114.688c-1.024 12.288-2.048 23.552-2.048 34.816 0 189.44 0 377.856 0 567.296 0 61.44 24.576 88.064 83.968 89.088 79.872 0 159.744 0 239.616-1.024 56.32 0 81.92-27.648 81.92-86.016 0-191.488 0-382.976 0-574.464 0-9.216-1.024-18.432-1.024-29.696zM252.928 253.696c32.768-1.024 34.816 20.48 32.768 45.056 2.048 25.6-1.024 46.080-31.744 46.080-32.768 0-34.816-21.504-34.816-47.104-1.024-24.576 3.072-44.032 33.792-44.032zM253.952 224c-31.744 0-35.84-20.48-35.84-47.104 0-25.6 4.096-43.008 34.816-44.032 32.768-1.024 34.816 20.48 32.768 46.080 3.072 25.6-2.048 45.056-31.744 45.056zM542.72 573.184c-43.008 0-48.128-6.144-48.128-58.368 0-50.176 5.12-56.32 50.176-56.32 40.96 1.024 45.056 6.144 45.056 57.344 0 52.224-4.096 58.368-47.104 57.344zM540.672 273.152c-40.96 0-46.080-6.144-46.080-59.392 0-48.128 6.144-55.296 47.104-55.296 44.032 0 48.128 5.12 48.128 58.368s-3.072 56.32-49.152 56.32zM589.824 363.264c0 57.344-1.024 58.368-45.056 59.392-48.128 0-50.176-3.072-50.176-55.296 0-55.296 2.048-57.344 48.128-57.344 45.056 0 47.104 2.048 47.104 53.248zM731.136 573.184c-41.984 0-47.104-6.144-47.104-58.368 0-50.176 5.12-56.32 49.152-56.32 41.984 1.024 46.080 6.144 46.080 57.344 0 52.224-5.12 58.368-48.128 57.344zM730.112 273.152c-40.96 0-46.080-6.144-46.080-59.392 0-48.128 5.12-55.296 47.104-55.296 44.032 0 48.128 5.12 48.128 58.368s-3.072 56.32-49.152 56.32zM779.264 363.264c0 57.344-2.048 58.368-46.080 59.392-47.104 0-49.152-3.072-49.152-55.296 0-55.296 1.024-57.344 47.104-57.344s48.128 2.048 48.128 53.248z" />
<glyph unicode="&#xea9d;" glyph-name="rounded-left" d="M664.576 59.136l22.528 22.528c19.456 19.456 19.456 51.2 0 70.656l-163.84 163.84c-10.24 10.24-15.36 22.528-15.36 35.84s5.12 25.6 15.36 35.84l163.84 163.84c19.456 19.456 19.456 51.2 0 70.656l-22.528 22.528c-19.456 19.456-51.2 19.456-70.656 0l-257.024-257.024c-9.216-10.24-14.336-22.528-14.336-35.84s4.096-25.6 14.336-35.84l257.024-257.024c19.456-19.456 51.2-19.456 70.656 0z" />
<glyph unicode="&#xeaa0;" glyph-name="rounded-right" d="M430.080 59.136l257.024 257.024c10.24 10.24 14.336 23.552 14.336 35.84s-4.096 25.6-14.336 35.84l-257.024 257.024c-19.456 19.456-51.2 19.456-70.656 0l-22.528-22.528c-19.456-19.456-19.456-51.2 0-70.656l163.84-163.84c10.24-10.24 15.36-22.528 15.36-35.84s-5.12-25.6-15.36-35.84l-163.84-163.84c-19.456-19.456-19.456-51.2 0-70.656l22.528-22.528c19.456-19.456 51.2-19.456 70.656 0z" />
<glyph unicode="&#xeab2;" glyph-name="simple-down" d="M204.8 461.568l307.2-307.2 307.2 307.2-87.040 88.064-220.16-220.16-220.16 220.16-87.040-88.064z" />
<glyph unicode="&#xeaca;" glyph-name="thin-right" d="M346.112 61.184l299.008 290.816-299.008 290.816 16.384 16.384 315.392-307.2-315.392-307.2-16.384 16.384z" />
<glyph unicode="&#xeb08;" glyph-name="file-alt" d="M846.848 648.96c-56.32 57.344-112.64 114.688-171.008 168.96-13.312 13.312-28.672 25.6-46.080 34.816-14.336 7.168-28.672 11.264-45.056 11.264h-305.152c-82.944 0-145.408-53.248-159.744-135.168-1.024-2.048-2.048-3.072-2.048-5.12v-743.424c4.096-5.12 2.048-11.264 4.096-17.408 15.36-63.488 64.512-110.592 130.048-120.832 2.048 0 4.096-1.024 6.144-2.048h506.88c16.384 5.12 32.768 7.168 48.128 14.336 50.176 24.576 80.896 64.512 90.112 119.808 1.024 2.048 0 5.12 3.072 6.144v575.488c-8.192 38.912-33.792 66.56-59.392 93.184zM827.392 494.336c-1.024-162.816-1.024-325.632-1.024-489.472 0-34.816-12.288-61.44-44.032-77.824-13.312-7.168-26.624-8.192-41.984-8.192-152.576 0-305.152 0-458.752 0-52.224 0-84.992 32.768-84.992 86.016 0 115.712 0 232.448 0 348.16s0 232.448 0 348.16c0 33.792 14.336 60.416 45.056 75.776 12.288 7.168 25.6 8.192 38.912 8.192h273.408c15.36 0 25.6-6.144 30.72-21.504 5.12-11.264 5.12-23.552 5.12-36.864 1.024-43.008 1.024-87.040 1.024-131.072 0-31.744 14.336-46.080 46.080-46.080l130.048-1.024c3.072 0 6.144 0 9.216 0 49.152-4.096 51.2-21.504 51.2-54.272zM733.184 388.864c-148.48 0-295.936 0-443.392 0-11.264 0-15.36-1.024-14.336-4.096 0-10.24 1.024-19.456 0-29.696-1.024-5.12 4.096-5.12 17.408-5.12 72.704 0 145.408 0 218.112 0 73.728 0 148.48 0 222.208 0 11.264 0 14.336 0 14.336 4.096-1.024 10.24-1.024 20.48 0 30.72 0 3.072-4.096 4.096-14.336 4.096zM284.672 434.944c39.936 0 79.872 0 119.808 0 40.96 0 81.92 0 121.856 0 6.144 0 8.192 1.024 8.192 8.192 0 17.408 0 34.816 0 52.224 0 7.168-2.048 8.192-8.192 8.192-80.896 0-161.792 0-243.712 0-6.144 0-8.192-1.024-7.168-8.192 0-16.384 0-33.792-1.024-50.176 0-9.216 3.072-10.24 10.24-10.24zM733.184 321.28c-148.48 0-295.936 0-443.392 0-11.264 0-15.36-1.024-14.336-5.12 0-9.216 1.024-19.456 0-28.672-1.024-5.12 4.096-6.144 17.408-6.144 72.704 0 145.408 0 218.112 0 73.728 0 148.48 0 222.208 0 11.264 0 14.336 1.024 14.336 5.12-1.024 10.24-1.024 19.456 0 29.696 0 4.096-4.096 5.12-14.336 5.12zM733.184 250.624c-148.48 0-295.936 0-443.392 0-11.264 0-15.36-1.024-14.336-5.12 0-9.216 1.024-19.456 0-28.672-1.024-5.12 4.096-6.144 17.408-6.144 72.704 1.024 145.408 0 218.112 0 73.728 0 148.48 1.024 222.208 0 11.264 0 14.336 1.024 14.336 5.12-1.024 10.24-1.024 20.48 0 29.696 0 4.096-4.096 5.12-14.336 5.12zM602.112 149.248c-86.016 0-171.008 0-256 0-7.168 0-9.216-1.024-9.216-4.096 1.024-10.24 1.024-19.456 0-29.696 0-5.12 3.072-5.12 11.264-5.12 41.984 0 82.944 0 124.928 0 43.008 0 86.016 0 129.024 0 6.144 0 8.192 0 8.192 4.096 0 10.24 0 20.48 0 30.72 0 3.072-2.048 4.096-8.192 4.096zM312.32 149.248c-12.288 0-24.576 0-35.84 0-1.024 0-1.024-1.024-1.024-4.096 0-10.24 0-19.456 0-29.696 0-5.12 0-5.12 1.024-5.12 6.144 0 11.264 0 17.408 0s12.288 0 18.432 0c0 0 1.024 0 1.024 4.096 0 10.24 0 20.48 0 30.72 0 3.072-1.024 4.096-1.024 4.096zM602.112 74.496c-86.016 0-171.008 0-256 0-7.168 0-9.216-1.024-9.216-5.12 1.024-9.216 1.024-18.432 0-28.672 0-5.12 3.072-6.144 11.264-6.144 41.984 1.024 82.944 1.024 124.928 1.024 43.008 0 86.016 0 129.024-1.024 6.144 0 8.192 1.024 8.192 5.12 0 10.24 0 20.48 0 30.72 0 3.072-2.048 4.096-8.192 4.096zM312.32 74.496c-12.288 0-24.576 0-35.84 0-1.024 0-1.024-1.024-1.024-5.12 0-9.216 0-18.432 0-28.672 0-5.12 0-6.144 1.024-6.144 6.144 1.024 11.264 1.024 17.408 1.024s12.288 0 18.432-1.024c0 0 1.024 1.024 1.024 5.12 0 10.24 0 20.48 0 30.72 0 3.072-1.024 4.096-1.024 4.096z" />
<glyph unicode="&#xeb10;" glyph-name="file-excel" d="M862.208 864h-681.984c-45.056 0-80.896-36.864-80.896-81.92v-860.16c0-45.056 35.84-81.92 80.896-81.92h662.528c45.056 0 81.92 36.864 81.92 81.92v879.616c0 34.816-27.648 62.464-62.464 62.464zM855.040 294.656v-372.736c0-7.168-5.12-12.288-12.288-12.288h-662.528c-6.144 0-11.264 5.12-11.264 12.288v860.16c0 7.168 5.12 12.288 11.264 12.288h500.736c14.336 0 36.864-10.24 46.080-21.504l16.384-18.432c10.24-12.288 20.48-24.576 30.72-35.84 14.336-16.384 28.672-32.768 41.984-49.152l18.432-21.504c10.24-11.264 20.48-37.888 20.48-53.248v-300.032zM680.96 545.536h-106.496l-62.464-129.024-63.488 129.024h-106.496l107.52-191.488-110.592-195.584h107.52l65.536 131.072 64.512-131.072h107.52l-110.592 195.584 107.52 191.488z" />
<glyph unicode="&#xeb16;" glyph-name="file-image" d="M562.176 338.688c18.432 0 32.768 14.336 33.792 32.768 0 18.432-14.336 33.792-32.768 34.816-19.456 0-34.816-15.36-34.816-34.816 0-18.432 15.36-32.768 33.792-32.768zM729.088 529.152c-12.288 1.024-25.6 0-39.936 0v37.888c0 14.336-2.048 16.384-16.384 16.384h-22.528c-9.216 0-13.312-4.096-13.312-13.312v-40.96h-283.648c-17.408 0-19.456-1.024-19.456-18.432v-283.648h-36.864c-14.336 0-16.384-3.072-17.408-17.408v-21.504c1.024-10.24 3.072-13.312 14.336-13.312 13.312-1.024 25.6 0 39.936 0v-39.936c0-11.264 3.072-14.336 14.336-14.336h24.576c9.216 0 14.336 4.096 14.336 13.312-1.024 13.312-1.024 26.624-1.024 40.96h284.672c17.408 0 18.432 1.024 18.432 18.432v283.648h37.888c13.312 0 16.384 3.072 16.384 17.408 1.024 7.168 1.024 13.312 0 21.504 0 11.264-3.072 13.312-14.336 13.312zM635.904 236.288c-15.36 19.456-29.696 36.864-45.056 57.344-4.096 5.12-10.24 5.12-14.336-1.024-3.072-3.072-5.12-6.144-7.168-9.216-4.096-6.144-11.264-6.144-15.36-1.024-10.24 11.264-19.456 22.528-28.672 33.792-6.144 5.12-13.312 5.12-17.408 0-5.12-6.144-10.24-12.288-14.336-18.432-5.12-5.12-11.264-6.144-15.36-3.072s-9.216 3.072-12.288 0c-2.048-3.072-7.168-2.048-10.24 3.072-1.024 3.072-3.072 6.144-5.12 9.216-1.024 2.048-3.072 3.072-3.072 3.072-1.024-1.024-1.024-1.024-1.024-1.024-10.24-18.432-19.456-35.84-28.672-54.272-2.048-3.072-3.072-3.072-5.12-3.072-8.192 2.048-16.384 2.048-25.6 2.048v223.232h248.832v-240.64zM862.208 864h-681.984c-45.056 0-80.896-36.864-80.896-81.92v-860.16c0-45.056 35.84-81.92 80.896-81.92h662.528c45.056 0 81.92 36.864 81.92 81.92v879.616c0 34.816-27.648 62.464-62.464 62.464zM855.040 294.656v-372.736c0-7.168-5.12-12.288-12.288-12.288h-662.528c-6.144 0-11.264 5.12-11.264 12.288v860.16c0 7.168 5.12 12.288 11.264 12.288h500.736c14.336 0 36.864-10.24 46.080-21.504l16.384-18.432c10.24-12.288 20.48-24.576 30.72-35.84 14.336-16.384 28.672-32.768 41.984-49.152l18.432-21.504c10.24-11.264 20.48-37.888 20.48-53.248v-300.032z" />
<glyph unicode="&#xeb1e;" glyph-name="file-pdf" d="M862.208 864h-681.984c-45.056 0-80.896-36.864-80.896-81.92v-860.16c0-45.056 35.84-81.92 80.896-81.92h662.528c45.056 0 81.92 36.864 81.92 81.92v879.616c0 34.816-27.648 62.464-62.464 62.464zM855.040 294.656v-372.736c0-7.168-5.12-12.288-12.288-12.288h-662.528c-6.144 0-11.264 5.12-11.264 12.288v860.16c0 7.168 5.12 12.288 11.264 12.288h500.736c14.336 0 36.864-10.24 46.080-21.504l16.384-18.432c10.24-12.288 20.48-24.576 30.72-35.84 14.336-16.384 28.672-32.768 41.984-49.152l18.432-21.504c10.24-11.264 20.48-37.888 20.48-53.248v-300.032zM758.784 295.68c-10.24 10.24-32.768 15.36-67.584 15.36h-4.096c-22.528 0-48.128-2.048-75.776-5.12-13.312 7.168-26.624 15.36-36.864 24.576-28.672 26.624-52.224 63.488-67.584 104.448 1.024 3.072 2.048 6.144 3.072 10.24 4.096 19.456 7.168 80.896 7.168 83.968v4.096c2.048 6.144 6.144 23.552 4.096 34.816 0 2.048-1.024 5.12-2.048 8.192l-3.072 7.168c-4.096 9.216-13.312 18.432-26.624 18.432h-7.168c-15.36 0-28.672-8.192-31.744-20.48-10.24-35.84 0-90.112 18.432-159.744l-4.096-11.264c-13.312-31.744-29.696-64.512-45.056-92.16l-1.024-3.072c-15.36-29.696-28.672-55.296-40.96-76.8l-13.312-6.144s-22.528-12.288-27.648-15.36c-45.056-26.624-73.728-56.32-78.848-80.896-2.048-10.24 1.024-18.432 8.192-23.552l12.288-6.144c6.144-2.048 11.264-4.096 17.408-4.096 31.744 0 68.608 39.936 118.784 126.976 58.368 19.456 123.904 34.816 181.248 43.008 44.032-24.576 98.304-41.984 132.096-41.984 6.144 0 12.288 1.024 16.384 2.048 6.144 1.024 12.288 6.144 16.384 11.264 2.048 4.096 4.096 13.312 5.12 18.432v22.528c-1.024 4.096-4.096 8.192-7.168 11.264zM291.84 129.792c7.168 16.384 28.672 45.056 60.416 70.656 1.024 1.024 3.072 3.072 5.12 4.096-30.72-46.080-51.2-66.56-65.536-74.752zM487.424 577.28c0 2.048 0 3.072 1.024 5.12 2.048-3.072 5.12-8.192 10.24-17.408 4.096-10.24 4.096-22.528 4.096-32.768v-3.072c-1.024-6.144-7.168-27.648-10.24-41.984-5.12 22.528-8.192 43.008-8.192 61.44 0 5.12 1.024 18.432 3.072 28.672zM431.104 260.864c6.144 12.288 13.312 24.576 20.48 36.864 17.408 33.792 28.672 59.392 36.864 81.92 17.408-30.72 37.888-56.32 62.464-76.8 2.048-2.048 5.12-4.096 8.192-6.144-49.152-10.24-91.136-21.504-128-35.84zM747.52 260.864c-1.024 0-4.096-1.024-9.216-1.024-17.408 0-46.080 7.168-75.776 19.456 32.768 3.072 56.32 1.024 70.656-3.072 17.408-5.12 19.456-10.24 19.456-9.216v0c-1.024-2.048-4.096-5.12-5.12-6.144z" />
<glyph unicode="&#xeb21;" glyph-name="file-powerpoint" d="M862.208 864h-681.984c-45.056 0-80.896-36.864-80.896-81.92v-860.16c0-45.056 35.84-81.92 80.896-81.92h662.528c45.056 0 81.92 36.864 81.92 81.92v879.616c0 34.816-27.648 62.464-62.464 62.464zM855.040 294.656v-372.736c0-7.168-5.12-12.288-12.288-12.288h-662.528c-6.144 0-11.264 5.12-11.264 12.288v860.16c0 7.168 5.12 12.288 11.264 12.288h500.736c14.336 0 36.864-10.24 46.080-21.504l16.384-18.432c10.24-12.288 20.48-24.576 30.72-35.84 14.336-16.384 28.672-32.768 41.984-49.152l18.432-21.504c10.24-11.264 20.48-37.888 20.48-53.248v-300.032zM592.896 529.152c-23.552 11.264-49.152 16.384-78.848 16.384h-154.624v-387.072h93.184v131.072h59.392c47.104 0 84.992 11.264 111.616 33.792 26.624 23.552 40.96 53.248 40.96 91.136 0 25.6-7.168 48.128-19.456 68.608-12.288 19.456-29.696 34.816-52.224 46.080zM555.008 375.552c-9.216-9.216-22.528-13.312-40.96-13.312h-61.44v111.616h62.464c16.384-1.024 29.696-6.144 39.936-16.384s14.336-25.6 14.336-44.032c0-16.384-5.12-28.672-14.336-37.888z" />
<glyph unicode="&#xed11;" glyph-name="search-1" d="M819.2 143.104c-7.168 8.192-8.192 20.48-2.048 29.696 45.056 69.632 70.656 151.552 70.656 240.64 0 244.736-198.656 444.416-443.392 444.416s-444.416-199.68-444.416-444.416c0-244.736 199.68-444.416 444.416-444.416 95.232 0 183.296 30.72 256 81.92 8.192 6.144 21.504 6.144 28.672-2.048l158.72-158.72c1.024-1.024 2.048-2.048 3.072-3.072 2.048-1.024 9.216-8.192 17.408-15.36l18.432-19.456c7.168-7.168 19.456-7.168 26.624 0l65.536 65.536c7.168 7.168 7.168 19.456 0 26.624l-199.68 198.656zM712.704 206.592c-14.336-19.456-30.72-36.864-49.152-52.224-59.392-50.176-136.192-80.896-219.136-80.896-187.392 0-339.968 152.576-339.968 339.968s152.576 339.968 339.968 339.968c187.392 0 338.944-152.576 338.944-339.968 0-77.824-26.624-149.504-70.656-206.848z" />
<glyph unicode="&#xed37;" glyph-name="facebook" d="M719.872 509.696h-141.312v93.184c0 34.816 22.528 43.008 38.912 43.008h100.352v153.6l-138.24 1.024c-152.576 0-187.392-114.688-187.392-188.416v-102.4h-88.064v-157.696h88.064v-447.488h186.368v447.488h124.928l16.384 157.696z" />
<glyph unicode="&#xed46;" glyph-name="instagram" d="M510.976 615.168c-144.384 0-263.168-117.76-263.168-262.144 0-145.408 118.784-263.168 263.168-263.168 145.408 0 263.168 117.76 263.168 263.168 0 144.384-117.76 262.144-263.168 262.144zM510.976 190.208c-89.088 0-162.816 72.704-162.816 162.816 0 89.088 73.728 161.792 162.816 161.792 90.112 0 162.816-72.704 162.816-161.792 0-90.112-72.704-162.816-162.816-162.816zM726.016 858.88h-430.080c-160.768 0-290.816-131.072-290.816-291.84v-429.056c0-160.768 130.048-291.84 290.816-291.84h430.080c160.768 0 291.84 131.072 291.84 291.84v429.056c0 160.768-131.072 291.84-291.84 291.84zM917.504 137.984c0-105.472-86.016-191.488-191.488-191.488h-430.080c-105.472 0-190.464 86.016-190.464 191.488v429.056c0 105.472 84.992 191.488 190.464 191.488h430.080c105.472 0 191.488-86.016 191.488-191.488v-429.056zM778.24 691.968c-37.888 0-69.632-31.744-69.632-69.632s30.72-68.608 69.632-68.608c37.888 0 68.608 30.72 68.608 68.608s-30.72 69.632-68.608 69.632z" />
<glyph unicode="&#xed4d;" glyph-name="linkedin" d="M891.904 800.512h-758.784c-36.864 0-66.56-28.672-66.56-64.512v-768c0-35.84 29.696-64.512 66.56-64.512h758.784c35.84 0 65.536 28.672 65.536 64.512v768c0 35.84-29.696 64.512-65.536 64.512zM336.896 49.92h-134.144v404.48h134.144v-404.48zM269.312 509.696h-1.024c-45.056 0-73.728 30.72-73.728 69.632 0 39.936 29.696 70.656 75.776 70.656s74.752-30.72 74.752-70.656c0-38.912-28.672-69.632-75.776-69.632zM821.248 49.92h-134.144v217.088c0 54.272-19.456 91.136-67.584 91.136-37.888 0-59.392-25.6-69.632-49.152-3.072-9.216-4.096-20.48-4.096-32.768v-226.304h-134.144s1.024 366.592 0 404.48h134.144v-57.344c17.408 27.648 50.176 66.56 120.832 66.56 89.088 0 154.624-57.344 154.624-181.248v-232.448z" />
<glyph unicode="&#xed87;" glyph-name="xing" d="M615.424-96.512l-200.704 352.256 311.296 544.768h208.896l-310.272-544.768 200.704-352.256h-209.92zM286.72 174.848l155.648 256-116.736 205.824h-197.632l116.736-205.824-155.648-256h197.632z" />
<glyph unicode="&#xed8b;" glyph-name="youtube" d="M340.992 601.856v-138.24h50.176v137.216l29.696 96.256c16.384 53.248 30.72 97.28 31.744 99.328 1.024 3.072-4.096 4.096-25.6 4.096h-25.6l-4.096-13.312c-2.048-7.168-9.216-35.84-17.408-63.488s-13.312-51.2-14.336-51.2-8.192 27.648-17.408 61.44c-8.192 33.792-16.384 62.464-17.408 63.488-1.024 2.048-12.288 2.048-26.624 2.048l-24.576-1.024 61.44-196.608zM618.496 477.952c3.072-5.12 7.168-11.264 11.264-13.312 8.192-4.096 25.6-4.096 35.84 0 4.096 2.048 13.312 8.192 19.456 14.336l12.288 10.24v-25.6h47.104v251.904h-47.104v-193.536l-9.216-9.216c-10.24-10.24-18.432-14.336-24.576-9.216-3.072 3.072-3.072 18.432-3.072 107.52v104.448h-48.128l1.024-113.664c0-106.496 1.024-115.712 5.12-123.904zM462.848 481.024c8.192-9.216 15.36-14.336 25.6-17.408 16.384-6.144 24.576-6.144 41.984-1.024s35.84 21.504 41.984 38.912c3.072 11.264 4.096 22.528 4.096 87.040 0 80.896-1.024 89.088-16.384 107.52-22.528 27.648-75.776 27.648-98.304 1.024-16.384-18.432-17.408-26.624-17.408-107.52 0-83.968 1.024-90.112 18.432-108.544zM493.568 664.32c6.144 13.312 27.648 13.312 33.792 0 2.048-4.096 3.072-29.696 3.072-76.8 0-72.704-1.024-80.896-11.264-84.992-2.048-1.024-6.144-1.024-9.216-1.024-18.432 0-19.456 5.12-19.456 87.040 0 46.080 1.024 71.68 3.072 75.776zM594.944 212.736c-6.144 2.048-9.216 2.048-18.432-3.072l-11.264-6.144v-152.576l9.216-5.12c12.288-7.168 16.384-7.168 25.6 0l6.144 6.144 1.024 69.632c1.024 77.824 0 87.040-12.288 91.136zM883.712 186.112c-1.024 45.056-3.072 93.184-4.096 106.496-8.192 72.704-30.72 107.52-78.848 119.808-24.576 6.144-91.136 9.216-234.496 10.24-132.096 2.048-267.264-1.024-319.488-6.144-53.248-6.144-81.92-31.744-95.232-84.992-13.312-59.392-16.384-230.4-5.12-312.32 4.096-22.528 14.336-53.248 22.528-67.584 22.528-33.792 55.296-41.984 177.152-46.080 81.92-3.072 327.68-1.024 387.072 2.048 55.296 3.072 68.608 6.144 88.064 15.36 52.224 25.6 65.536 82.944 62.464 263.168zM330.752 289.536h-26.624v-286.72h-50.176v286.72h-52.224v47.104h156.672v-47.104h-27.648zM483.328 126.72v-123.904h-47.104v25.6l-11.264-10.24c-6.144-5.12-14.336-12.288-18.432-14.336-11.264-5.12-32.768-5.12-40.96 2.048-13.312 9.216-14.336 19.456-14.336 138.24v107.52h47.104v-101.376c0-90.112 1.024-103.424 4.096-106.496 6.144-6.144 11.264-4.096 22.528 7.168l11.264 11.264v189.44h47.104v-124.928zM654.336 115.456c0-79.872 0-81.92-6.144-94.208-3.072-6.144-9.216-13.312-14.336-16.384-9.216-6.144-28.672-6.144-39.936-1.024-4.096 2.048-12.288 7.168-18.432 12.288l-10.24 9.216v-22.528h-45.056v333.824h45.056v-107.52l12.288 10.24c11.264 10.24 25.6 17.408 35.84 17.408 11.264 0 24.576-8.192 30.72-18.432 10.24-17.408 11.264-33.792 10.24-122.88zM821.248 68.352c-2.048-33.792-12.288-52.224-36.864-63.488-16.384-7.168-44.032-7.168-61.44 2.048-15.36 7.168-25.6 19.456-31.744 35.84-4.096 9.216-5.12 22.528-6.144 76.8-1.024 83.968 2.048 100.352 23.552 119.808 13.312 11.264 25.6 15.36 44.032 15.36 21.504 1.024 36.864-5.12 50.176-20.48 15.36-17.408 19.456-31.744 19.456-77.824v-36.864h-90.112v-28.672c0-23.552 1.024-31.744 4.096-38.912 6.144-11.264 17.408-14.336 27.648-8.192 8.192 5.12 11.264 13.312 11.264 30.72v15.36h48.128l-2.048-21.504zM775.168 157.44v18.432c0 23.552-5.12 34.816-14.336 36.864-20.48 5.12-28.672-6.144-28.672-36.864v-18.432h43.008z" />
<glyph unicode="&#xeecd;" glyph-name="calendar" d="M756.736 707.328c0 13.312 0 25.6 0 37.888-1.024 23.552-15.36 44.032-38.912 52.224-23.552 7.168-49.152-1.024-63.488-19.456-8.192-11.264-12.288-23.552-12.288-36.864v-33.792c0-5.12-4.096-9.216-9.216-9.216h-60.416c-5.12 0-10.24 4.096-10.24 9.216 0 11.264 1.024 22.528 0 33.792 0 26.624-13.312 47.104-35.84 55.296-37.888 13.312-76.8-12.288-77.824-51.2 0-12.288 0-24.576 0-37.888 0-5.12-4.096-9.216-10.24-9.216h-61.44c-5.12 0-10.24 4.096-10.24 9.216 1.024 16.384 2.048 31.744 0 46.080-2.048 21.504-16.384 36.864-36.864 44.032-20.48 6.144-39.936 2.048-56.32-11.264-15.36-12.288-19.456-28.672-19.456-47.104 0-11.264 0-21.504 0-31.744 0-6.144-4.096-10.24-10.24-10.24h-167.936c-6.144 0-10.24-4.096-10.24-9.216v-774.144c0-5.12 5.12-9.216 10.24-9.216h872.448c5.12 0 10.24 4.096 10.24 9.216v774.144c0 5.12-5.12 9.216-10.24 9.216h-182.272c-5.12 0-9.216 4.096-9.216 10.24zM333.824-57.6h-219.136c-6.144 0-10.24 4.096-10.24 9.216v153.6c0 5.12 5.12 9.216 10.24 9.216h219.136c5.12 0 9.216-4.096 9.216-9.216v-153.6c0-5.12-4.096-9.216-9.216-9.216zM333.824 154.368h-219.136c-6.144 0-10.24 4.096-10.24 9.216v161.792c0 5.12 5.12 9.216 10.24 9.216h219.136c5.12 0 9.216-4.096 9.216-9.216v-161.792c0-5.12-4.096-9.216-9.216-9.216zM333.824 374.528h-219.136c-6.144 0-10.24 4.096-10.24 9.216v155.648c0 5.12 5.12 9.216 10.24 9.216h219.136c5.12 0 9.216-4.096 9.216-9.216v-155.648c0-5.12-4.096-9.216-9.216-9.216zM625.664-57.6h-232.448c-5.12 0-9.216 4.096-9.216 9.216v152.576c0 5.12 4.096 10.24 9.216 10.24h232.448c5.12 0 9.216-5.12 9.216-10.24v-152.576c0-5.12-4.096-9.216-9.216-9.216zM635.904 159.488c-1.024-3.072-5.12-6.144-10.24-6.144h-232.448c-5.12 0-9.216 5.12-9.216 10.24v161.792c0 5.12 2.048 9.216 5.12 10.24h6.144c75.776 0 152.576 0 228.352 0 9.216 0 12.288-2.048 12.288-11.264 0-53.248 0-106.496 0-159.744 0-2.048 0-4.096 0-5.12zM635.904 379.648c0-3.072-4.096-5.12-10.24-5.12h-232.448c-5.12 0-9.216 4.096-9.216 9.216v155.648c0 5.12 2.048 10.24 5.12 10.24h6.144c75.776 0 152.576 0 228.352 0 9.216 0 12.288-2.048 12.288-12.288 0-50.176 0-101.376 0-152.576v-5.12zM685.056 334.592h224.256c5.12 0 9.216-4.096 9.216-9.216v-161.792c0-5.12-4.096-10.24-9.216-10.24h-224.256c-6.144 0-10.24 5.12-10.24 10.24v161.792c0 5.12 4.096 9.216 10.24 9.216zM909.312-57.6h-224.256c-6.144 0-10.24 4.096-10.24 9.216v152.576c0 6.144 4.096 10.24 10.24 10.24h224.256c5.12 0 9.216-4.096 9.216-10.24v-152.576c1.024-5.12-4.096-9.216-9.216-9.216zM909.312 374.528h-224.256c-6.144 0-10.24 4.096-10.24 9.216v155.648c0 5.12 4.096 9.216 10.24 9.216h224.256c5.12 0 9.216-4.096 9.216-9.216v-155.648c1.024-5.12-4.096-9.216-9.216-9.216z" />
<glyph unicode="&#xeed8;" glyph-name="check" d="M405.504 102.144l-197.632 196.608c-4.096 5.12-4.096 12.288 0 17.408l67.584 66.56c4.096 4.096 11.264 4.096 16.384 0l110.592-110.592c4.096-4.096 11.264-4.096 16.384 0 103.424 110.592 206.848 220.16 310.272 329.728 4.096 5.12 12.288 5.12 16.384 1.024l69.632-66.56c5.12-4.096 5.12-11.264 1.024-16.384-132.096-139.264-263.168-278.528-394.24-417.792-4.096-5.12-12.288-5.12-16.384 0z" />
<glyph unicode="&#xeedc;" glyph-name="clock-time" d="M512 800.512c-244.736 0-442.368-197.632-447.488-438.272-5.12-250.88 193.536-454.656 440.32-458.752 257.024-3.072 450.56 202.752 454.656 439.296 5.12 251.904-198.656 457.728-447.488 457.728zM515.072-6.4c-200.704-1.024-361.472 159.744-361.472 358.4 0 197.632 160.768 358.4 358.4 358.4s357.376-160.768 358.4-358.4c1.024-190.464-153.6-356.352-355.328-358.4zM542.72 620.288h-60.416c-4.096 0-7.168-3.072-7.168-7.168v-215.040c0-4.096-4.096-7.168-8.192-7.168h-137.216c-4.096 0-7.168-3.072-7.168-7.168v-61.44c0-4.096 3.072-7.168 7.168-7.168h212.992c4.096 0 7.168 3.072 7.168 7.168v290.816c0 4.096-3.072 7.168-7.168 7.168z" />
<glyph unicode="&#xeee1;" glyph-name="close-line" d="M781.312 659.2l37.888-37.888-268.288-269.312 268.288-268.288-37.888-38.912-269.312 269.312-268.288-269.312-38.912 38.912 269.312 268.288-269.312 269.312 38.912 37.888 268.288-268.288z" />
<glyph unicode="&#xeee4;" glyph-name="close" d="M727.040 652.032c-66.56-66.56-132.096-134.144-198.656-201.728-9.216-9.216-23.552-9.216-31.744 0-66.56 67.584-133.12 135.168-199.68 201.728-8.192 9.216-22.528 9.216-31.744 0-15.36-16.384-31.744-32.768-48.128-49.152-8.192-9.216-8.192-23.552 0-32.768 64.512-65.536 131.072-133.12 198.656-201.728 9.216-9.216 8.192-23.552 0-32.768-66.56-67.584-133.12-135.168-199.68-202.752-8.192-9.216-8.192-23.552 0-31.744l49.152-49.152c9.216-9.216 23.552-9.216 31.744 0l199.68 201.728c8.192 9.216 22.528 9.216 31.744 0 65.536-67.584 132.096-134.144 198.656-201.728 8.192-9.216 22.528-9.216 31.744 0 16.384 16.384 31.744 32.768 48.128 49.152 9.216 9.216 9.216 23.552 0 32.768-64.512 66.56-131.072 133.12-198.656 201.728-8.192 9.216-8.192 23.552 0 32.768 66.56 67.584 133.12 135.168 199.68 202.752 8.192 9.216 8.192 23.552 0 32.768l-49.152 49.152c-9.216 8.192-23.552 8.192-31.744-1.024z" />
<glyph unicode="&#xeee5;" glyph-name="cloud-download" d="M881.664 408.32c-20.48 17.408-28.672 34.816-32.768 61.44-12.288 91.136-64.512 154.624-148.48 186.368-88.064 33.792-174.080 24.576-247.808-37.888-15.36-14.336-30.72-21.504-49.152-23.552-34.816 43.008-88.064 70.656-147.456 70.656-106.496 0-191.488-86.016-191.488-191.488 0-47.104 16.384-89.088 44.032-122.88-31.744-53.248-37.888-115.712-16.384-178.176 30.72-89.088 109.568-144.384 208.896-144.384 72.704 0 146.432 0 219.136 0 74.752 0 149.504 0 224.256 0 92.16 1.024 172.032 56.32 202.752 142.336 30.72 84.992 6.144 179.2-65.536 237.568zM87.040 473.856c0 93.184 75.776 167.936 168.96 167.936 52.224 0 99.328-23.552 130.048-61.44 7.168-9.216 13.312-18.432 19.456-29.696 7.168-15.36 13.312-32.768 16.384-50.176 1.024-9.216 2.048-17.408 2.048-26.624 0-93.184-75.776-167.936-167.936-167.936-29.696 0-58.368 7.168-81.92 20.48-10.24 6.144-19.456 12.288-28.672 20.48-7.168 6.144-13.312 12.288-19.456 19.456-23.552 28.672-38.912 66.56-38.912 107.52zM920.576 188.16c-23.552-77.824-93.184-129.024-177.152-129.024-73.728 0-146.432 0-220.16 0-74.752 0-149.504 0-224.256 0-86.016 0-156.672 51.2-180.224 130.048-15.36 49.152-10.24 97.28 12.288 139.264 9.216-8.192 20.48-15.36 31.744-22.528-15.36-28.672-18.432-62.464-9.216-98.304 17.408-67.584 72.704-109.568 148.48-109.568 143.36 0 287.744 0 432.128 0 77.824 0 136.192 41.984 152.576 110.592 17.408 67.584-14.336 132.096-82.944 168.96-9.216 6.144-19.456 20.48-19.456 30.72 2.048 91.136-38.912 159.744-113.664 186.368-83.968 28.672-158.72 2.048-214.016-77.824-3.072-4.096-6.144-8.192-11.264-13.312h-1.024c-3.072 20.48-9.216 39.936-18.432 58.368 11.264 2.048 20.48 8.192 31.744 19.456 65.536 66.56 147.456 78.848 231.424 47.104 80.896-31.744 128-94.208 132.096-183.296 0-23.552 9.216-36.864 27.648-50.176 68.608-47.104 96.256-129.024 71.68-206.848zM160.768 499.456c4.096 3.072 10.24 3.072 13.312 0l52.224-52.224v139.264c0 5.12 4.096 9.216 9.216 9.216h36.864c5.12 0 9.216-4.096 9.216-9.216v-143.36l55.296 56.32c4.096 3.072 9.216 3.072 13.312 0l21.504-22.528c4.096-3.072 4.096-9.216 0-12.288l-109.568-110.592c-4.096-3.072-9.216-3.072-13.312 0l-109.568 109.568c-4.096 4.096-4.096 10.24 0 13.312l21.504 22.528z" />
<glyph unicode="&#xef4f;" glyph-name="info-square" d="M893.952 799.488h-762.88c-36.864 0-66.56-28.672-66.56-65.536v-763.904c0-36.864 29.696-65.536 66.56-65.536h762.88c36.864 0 66.56 28.672 66.56 65.536v763.904c0 36.864-29.696 65.536-66.56 65.536zM445.44 629.504c8.192 1.024 17.408 2.048 26.624 3.072 10.24 1.024 18.432 1.024 26.624 1.024s17.408 0 27.648-1.024c9.216-1.024 18.432-2.048 26.624-3.072 2.048-9.216 3.072-17.408 3.072-25.6 1.024-8.192 1.024-16.384 1.024-24.576s0-16.384-1.024-25.6c0-8.192-1.024-16.384-3.072-25.6-8.192-1.024-17.408-2.048-26.624-3.072-9.216 0-18.432 0-26.624 0s-17.408 0-26.624 0c-10.24 1.024-18.432 2.048-27.648 3.072-3.072 17.408-4.096 33.792-4.096 51.2 0 15.36 1.024 32.768 4.096 50.176zM612.352 70.4h-200.704c-3.072 12.288-4.096 25.6-4.096 39.936 0 6.144 0 13.312 1.024 20.48 0 7.168 2.048 14.336 3.072 20.48h49.152v230.4h-49.152c-1.024 7.168-3.072 13.312-3.072 20.48-1.024 8.192-1.024 14.336-1.024 21.504 0 13.312 1.024 26.624 4.096 38.912h151.552v-311.296h49.152c2.048-6.144 3.072-13.312 4.096-20.48 0-7.168 1.024-14.336 1.024-20.48 0-14.336-2.048-27.648-5.12-39.936z" />
<glyph unicode="&#xef79;" glyph-name="location-pin" d="M492.544-73.984c-19.456 25.6-38.912 52.224-56.32 77.824-63.488 89.088-120.832 181.248-167.936 279.552-22.528 48.128-44.032 98.304-54.272 150.528-19.456 99.328 4.096 188.416 70.656 263.168 64.512 73.728 147.456 106.496 244.736 102.4 135.168-5.12 252.928-107.52 280.576-240.64 11.264-54.272 8.192-107.52-9.216-160.768-33.792-106.496-86.016-202.752-146.432-294.912-43.008-66.56-90.112-130.048-135.168-194.56-1.024-1.024-2.048-3.072-4.096-4.096-2.048-3.072-12.288 7.168-22.528 21.504zM661.504 491.264c3.072 76.8-60.416 148.48-137.216 152.576-88.064 5.12-156.672-56.32-160.768-145.408-4.096-76.8 61.44-148.48 139.264-151.552 86.016-4.096 153.6 57.344 158.72 144.384z" />
<glyph unicode="&#xefbb;" glyph-name="phone" d="M400.384 502.528c-123.904-71.68 64.512-423.936 199.68-346.112l124.928-216.064c-57.344-32.768-105.472-54.272-171.008-16.384-183.296 104.448-385.024 453.632-378.88 661.504 2.048 72.704 44.032 101.376 100.352 133.12 23.552-40.96 100.352-175.104 124.928-216.064zM451.584 507.648c-13.312-7.168-30.72-3.072-37.888 10.24l-117.76 204.8c-8.192 13.312-3.072 29.696 10.24 37.888l61.44 35.84c13.312 7.168 30.72 3.072 38.912-10.24l117.76-203.776c7.168-13.312 3.072-30.72-10.24-38.912l-62.464-35.84zM774.144-49.408c-13.312-8.192-30.72-3.072-38.912 10.24l-117.76 203.776c-7.168 13.312-3.072 30.72 10.24 38.912l62.464 34.816c13.312 8.192 29.696 4.096 37.888-10.24l117.76-203.776c8.192-13.312 3.072-30.72-10.24-37.888l-61.44-35.84z" />
<glyph unicode="&#xf004;" glyph-name="tag" d="M549.888-69.888c-153.6 153.6-307.2 307.2-460.8 461.824-2.048 2.048-5.12 4.096-7.168 6.144-6.144 12.288-15.36 24.576-17.408 36.864-2.048 15.36 1.024 30.72 5.12 46.080 15.36 71.68 31.744 143.36 48.128 215.040 5.12 25.6 19.456 45.056 46.080 50.176 75.776 17.408 151.552 33.792 227.328 51.2 31.744 7.168 58.368 0 80.896-23.552 26.624-28.672 55.296-55.296 82.944-83.968l378.88-378.88c33.792-32.768 34.816-74.752 2.048-107.52-92.16-92.16-185.344-185.344-277.504-277.504-14.336-14.336-30.72-21.504-47.104-21.504-26.624-1.024-45.056 9.216-61.44 25.6zM328.704 609.024c0 40.96-33.792 73.728-74.752 73.728s-73.728-32.768-74.752-73.728c0-40.96 33.792-74.752 75.776-74.752 40.96 1.024 74.752 34.816 73.728 74.752z" />
<glyph unicode="&#xf026;" glyph-name="warning" d="M135.168-53.504h754.688c52.224 0 86.016 56.32 62.464 103.424l-376.832 667.648c-26.624 52.224-100.352 52.224-126.976 0l-376.832-667.648c-23.552-47.104 10.24-103.424 63.488-103.424zM571.392 102.144c0-34.816-25.6-61.44-61.44-61.44s-61.44 26.624-61.44 61.44v2.048c0 34.816 25.6 61.44 61.44 61.44s61.44-26.624 61.44-61.44v-2.048zM477.184 553.728h70.656c19.456 0 30.72-16.384 28.672-36.864l-30.72-272.384c-2.048-19.456-15.36-31.744-33.792-31.744-17.408 0-30.72 12.288-32.768 31.744l-31.744 272.384c-2.048 20.48 10.24 36.864 29.696 36.864z" />
</font>
</defs>
</svg>
